#TITLE:Crayon;
#SUBTITLE:Expi3nze;
#ARTIST:G-Dragon;
#TITLETRANSLIT:;
#SUBTITLETRANSLIT:;
#ARTISTTRANSLIT:;
#CREDIT:;
#BANNER:bn.png;
#BACKGROUND:bg.png;
#LYRICSPATH:;
#CDTITLE:cdtitle.png;
#MUSIC:Crayon.mp3;
#OFFSET:-0.255;
#SAMPLESTART:54.800;
#SAMPLELENGTH:21.818;
#SELECTABLE:YES;
#BPMS:0.000=131.996,2.000=132.010,3.000=131.996,6.000=132.010,7.000=131.996,10.000=132.010,11.000=131.996,13.000=132.010,14.000=131.996,17.000=132.010,18.000=131.996,21.000=132.010,22.000=131.996,24.000=132.010,25.000=131.996,28.000=132.010,29.000=131.996,32.000=132.010,33.000=131.996,35.000=132.010,36.000=131.996,39.000=132.010,40.000=131.996,43.000=132.010,44.000=131.996,46.000=132.010,47.000=131.996,50.000=132.010,51.000=131.996,54.000=132.010,55.000=131.996,57.000=132.010,58.000=131.996,61.000=132.010,62.000=131.996,65.000=132.010,66.000=131.996,68.000=132.010,69.000=131.996,72.000=132.010,73.000=131.996,76.000=132.010,77.000=131.996,78.000=66.008,78.333=264.072,79.000=132.010,80.000=131.996,81.000=132.010,81.500=66.018,81.667=264.072,82.000=132.010,83.000=131.983,83.500=66.018,83.667=264.072,84.000=132.010,85.000=131.996,87.000=132.010,88.000=131.996,89.000=131.983,89.500=66.018,89.667=264.072,90.000=132.010,91.000=131.996,93.000=132.010,94.000=131.996,97.000=132.010,98.000=131.996,101.000=132.010,102.000=131.996,104.000=132.010,105.000=131.996,108.000=132.010,109.000=131.996,112.000=33.001,113.000=33.000,114.000=132.010,115.000=131.996,117.000=132.010,118.000=131.996,121.000=132.010,122.000=131.996,125.000=132.010,126.000=131.996,128.000=132.010,129.000=131.996,132.000=132.010,133.000=131.996,136.000=132.010,137.000=131.996,139.000=132.010,140.000=131.996,143.000=132.010,144.000=528.144,145.000=527.933,147.000=528.144,148.000=527.933,150.000=528.144,151.000=527.933,152.000=132.010,153.000=131.996,155.000=132.010,156.000=131.996,159.000=132.010,160.000=131.996,163.000=132.010,164.000=131.996,166.000=132.010,167.000=131.996,170.000=132.010,171.000=131.996,174.000=132.010,175.000=131.996,177.000=132.010,178.000=131.996,180.000=264.019,182.000=263.966,183.000=264.019,184.000=528.144,185.000=527.933,187.000=528.144,188.000=264.019,190.000=528.144,191.000=527.933,192.000=264.019,193.000=528.144,194.000=527.933,195.000=264.019,196.000=528.144,197.000=527.933,198.000=264.019,199.000=528.144,200.000=527.933,201.000=264.019,202.000=528.144,203.000=264.072,203.500=528.355,204.000=527.933,204.500=264.072,205.000=528.144,206.000=264.072,206.500=528.355,207.000=527.933,207.500=264.072,208.000=1056.710,209.000=528.355,209.500=1056.710,210.500=528.355,211.000=527.933,212.000=264.072,212.500=1056.710,213.500=528.355,214.000=1056.710,215.000=528.355,215.500=1056.710,216.500=528.355,217.000=1056.710,218.000=1055.870,219.000=66.005,220.000=66.002,221.000=132.010,222.000=131.996,223.000=132.010,224.000=131.996,225.000=132.010,226.000=131.996,227.000=132.010,228.000=131.996,229.000=132.010,230.000=131.996,231.000=132.010,232.000=131.996,233.000=132.010,234.000=131.996,235.000=132.010,236.000=131.996,237.000=132.010,238.000=131.996,239.000=132.010,240.000=131.996,241.000=132.010,242.000=131.996,243.000=132.010,244.000=131.996,245.000=132.010,246.000=131.996,247.000=132.010,248.000=131.996,249.000=132.010,250.000=131.996,251.000=132.010,252.000=131.996,253.000=132.010,254.000=131.996,255.000=132.010,256.000=131.996,257.000=132.010,258.000=131.996,259.000=132.010,260.000=131.996,261.000=132.010,262.000=131.996,263.000=132.010,264.000=131.996,265.000=132.010,266.000=131.996,267.000=132.010,268.000=131.996,269.000=132.010,270.000=131.996,271.000=132.010,272.000=131.996,273.000=132.010,274.000=131.996,275.000=132.010,276.000=131.996,277.000=132.010,278.000=131.996,279.000=132.010,280.000=131.996,281.000=132.010,282.000=131.996,283.000=132.010,284.000=131.996,285.000=132.010,286.000=131.996,287.000=132.010,288.000=131.996,289.000=132.010,290.000=131.996,291.000=132.010,292.000=131.996,293.000=132.010,294.000=131.996,295.000=132.010,296.000=131.996,297.000=132.010;
#STOPS:;
#BGCHANGES:;
// cache tags:
#FIRSTBEAT:0.000;
#LASTBEAT:295.000;
#SONGFILENAME:Songs/Expi3nze 4th Collection/Crayon (G-Dragon)/Crayon.sm;
#HASMUSIC:1;
#HASBANNER:1;
#MUSICLENGTH:124.434;
// end cache tags

//---------------dance-single - ----------------
#NOTES:
     dance-single:
     :
     Hard:
     21:
     1.000,1.000,0.755,0.908,1.000,761.000,94.000,113.000,0.000,60.000:
0200
0000
0301
0010
0200
0000
0301
0010
0200
0000
0301
0010
0200
0000
0301
0010
,
0200
0000
0301
0010
0200
0000
0301
0010
0200
0000
0000
0000
0302
0000
0000
0000
,
0203
0000
1300
0010
0200
0000
1300
0010
0200
0000
1300
0010
0200
0000
1300
0010
,
0200
0320
0230
0302
0203
0020
2332
0003
,
3010
0010
0000
0000
0100
0100
0000
0000
0001
0001
0000
0000
1000
1000
0000
0000
,
0022
0033
0022
0033
,
0010
0010
0000
0000
0100
0100
0000
0000
0001
0001
0000
0000
1000
1000
0000
0010
,
0101
0000
0010
0000
0000
0000
1100
0000
1100
0000
0010
0101
0010
0000
1000
0000
,
1110
0000
0100
0000
1000
0000
0001
0100
0011
0000
1000
0000
1010
0000
0100
0000
,
1000
0000
0011
0000
0011
1000
0100
0010
0001
0000
0100
0000
1000
0100
0010
0001
,
1100
0000
0001
0000
0010
0000
1001
0000
0101
0000
0001
0000
2010
0001
0100
0010
,
3201
0000
1010
0000
1010
0000
1000
0001
0310
0000
1010
0000
1010
0000
0001
0100
,
1010
0000
0100
0000
0001
0000
1010
0000
1010
0000
0001
0000
1100
0001
0010
0100
,
1000
0000
0011
0000
0011
1000
0100
0010
0001
0000
0100
0000
2100
0000
0000
0000
,
3101
0000
0000
0000
0010
0000
0010
0000
1010
0000
1000
0010
1100
0000
1000
0010
,
0101
0000
0010
0000
0010
0000
1000
0100
1001
0000
0010
0001
1100
0000
0001
0010
,
0200
0000
0301
0010
0200
0000
0301
0010
0200
0000
0301
0010
0200
0000
0301
0010
,
0200
0000
0301
0010
0200
0000
0301
0010
0200
0000
0000
0000
0302
0000
0000
0000
,
0203
0000
1300
0010
0200
0000
1300
0010
0200
0000
1300
0010
0200
0000
1300
0010
,
0200
0320
0230
0302
2203
0000
3322
0000
,
1033
1000
1000
1000
1000
1000
1000
0000
1000
1000
1000
1000
1000
1000
1000
0000
,
1000
1000
1000
1000
1000
1000
1000
0010
0001
0010
1000
1000
1001
0010
0100
1000
,
0001
0001
0001
0001
0001
0001
0001
0000
0001
0001
0001
0001
0001
0001
0001
0000
,
0001
0000
0001
0000
0001
0001
0001
0000
0002
0000
0000
0000
1003
1000
1000
1000
,
1010
0010
1000
0100
0010
1000
1010
0000
1000
1000
1000
1000
1010
0010
1000
0000
,
1000
1000
1010
0001
1010
0001
1000
1000
1100
0010
1000
0100
1000
1000
1000
0000
,
1010
0010
1000
1000
0010
1000
1010
0000
1000
1000
1000
1000
1010
0000
1000
1000
,
1000
0000
1000
0000
1000
1000
1000
0000
2000
0000
0000
0000
3020
0000
0000
0000
,
0030
0000
0000
0000
0000
0000
0000
0000
0010
0010
0000
0010
0010
0000
0010
0010
,
0000
0010
0010
0000
2010
0000
0200
0000
3310
0010
0000
0010
0010
0000
0010
0010
,
0000
0010
0010
0000
2010
0000
0000
0000
3010
0010
0000
0010
0010
0000
0010
0010
,
0000
0010
0010
0000
2010
0000
0200
0000
3310
0010
0000
0010
0010
0000
0010
0010
,
0000
0010
0010
0000
0012
0000
0000
0000
0013
0010
0000
0010
0010
0000
0010
0010
,
0000
0010
0010
0000
2000
0000
0200
0000
3301
0001
0000
0001
0001
0000
0001
0001
,
0000
0001
0001
0000
0002
0000
0000
0000
1003
1000
0000
1000
1000
0000
1000
1000
,
0000
1000
1000
0000
2000
0000
0200
0000
3311
0000
0000
0000
0011
0000
0000
0000
,
0010
0001
0010
0001
0010
0001
0010
0001
0010
0001
0010
0001
0010
0001
0010
0001
,
0010
0001
0010
0001
0010
0001
0010
0001
0010
0001
0010
0001
0010
0000
0000
0000
,
0010
0010
0000
0010
0010
0000
0010
0010
0000
0010
0010
0000
0012
0000
0020
0000
,
1033
1000
0000
1000
1000
0000
1000
1000
0000
1000
1000
0000
2010
0000
0000
0000
,
3010
0010
0000
0010
0010
0000
0010
0010
0000
0010
0010
0000
0210
0000
0002
0000
,
2300
0203
3311
2000
0022
3033
1012
0000
,
0013
0010
0000
0010
0010
0000
0010
0010
0000
0010
0010
0000
2010
0000
0020
0000
,
3130
0100
0000
0100
0100
0000
0100
0100
0000
0100
0100
0000
0102
0000
0000
0000
,
0103
0100
0000
0100
0100
0000
0100
0100
0000
0100
0100
0000
2100
0000
0200
0000
,
3310
0001
0010
0001
0010
0001
0010
0001
0010
0001
0010
0001
0010
0001
0010
0001
,
0010
0001
0010
0001
0010
0001
0010
0001
0010
0001
0010
0001
0010
0001
0010
0001
,
0010
0001
0010
0001
0010
0001
0010
0001
0010
0001
0010
0001
0010
0001
0010
0001
,
0010
0001
0010
0001
0010
0001
0010
0001
0010
0001
0010
0001
0010
0001
0010
0001
,
0010
0001
0010
0001
0010
0001
0010
0001
0010
0001
0010
0001
0010
0001
0010
0001
,
0010
0001
0010
0001
0010
0001
0010
0001
0010
0001
0010
0001
0010
0001
0010
0001
,
0010
0001
0010
0001
0010
0001
0010
0001
0010
0001
0010
0001
0010
0001
0010
0001
,
0010
0001
0010
0001
0010
0001
0010
0001
0010
0001
0010
0001
0010
0001
0010
0001
,
0010
0001
0010
0001
0010
0001
0010
0001
0010
0001
0010
0001
0010
0001
0010
0001
,
0010
0001
0010
0001
0010
0000
0000
0000
0000
0000
0000
0000
0111
0000
0000
0000
,
0000
0000
0000
0000
2001
0001
0000
0001
0001
0000
0001
0001
0000
0001
0001
0000
,
0201
0000
0001
0000
3321
0001
0000
0001
0001
0000
0001
0001
0000
0001
0001
0000
,
2001
0000
0000
0000
3231
0001
0000
0001
0001
0000
0001
0001
0000
0001
0001
0000
,
0001
0000
0001
0000
2301
0001
0000
0001
0001
0000
0001
0001
0000
0001
0001
0000
,
0201
0000
0000
0000
3321
0001
0000
0001
0001
0000
0001
0001
0000
0001
0001
0000
,
2001
0000
0001
0000
3231
0001
0000
0001
0001
0000
0001
0001
0000
0001
0001
0000
,
0021
0000
0000
0000
2331
0001
0000
0001
0001
0000
0001
0001
0000
0001
0001
0000
,
0201
0000
0001
0000
3321
0001
0000
0001
0001
0000
0001
0001
0000
0001
0001
0000
,
0201
0000
0000
0000
2331
0001
0000
0001
0001
0000
0001
0001
0000
0001
0001
0000
,
0201
0000
0001
0000
3321
0001
0000
0001
0001
0000
0001
0001
0000
0001
0001
0000
,
2001
0000
0000
0000
3231
0001
0000
0001
0001
0000
0001
0001
0000
0001
0001
0000
,
0021
0000
0001
0000
2331
0001
0000
0001
0001
0000
0001
0001
0000
0001
0001
0000
,
0201
0000
0000
0000
3321
0001
0000
0001
0001
0000
0001
0001
0000
0001
0001
0000
,
2001
0000
0001
0000
3231
0001
0000
0001
0001
0000
0001
0001
0000
0001
0001
0000
,
0021
0000
0000
0000
2331
0001
0000
0001
0001
0000
0001
0001
0000
0001
0001
0000
,
0201
0000
0001
0000
3321
0001
0000
0001
0001
0000
0001
0001
0000
0001
0001
0000
,
0002
0000
0000
0000
0133
0100
0000
0000
0001
0001
0000
0000
1000
1000
0000
0000
,
0010
0022
0033
0222
,
0000
0000
0000
0333
,
0000
0000
0000
0000
,
0000
0000
0000
0000
,
0000
0000
0000
0000
,
0000
0000
0000
0000
,
0000
0000
0000
0000
;
